#TITLE:Parade;
#SUBTITLE:- Naruto 12th Ending;
#ARTIST:CHABA;
#TITLETRANSLIT:;
#SUBTITLETRANSLIT:;
#ARTISTTRANSLIT:;
#CREDIT:naruttebayo;
#BANNER:Parade banner.avi;
#BACKGROUND:Naruto Wallpaper Parade 2.jpg;
#LYRICSPATH:Parade.lrc;
#CDTITLE:parade cdtitle.png;
#MUSIC:Parade (TV Size).mp3;
#OFFSET:-0.040;
#SAMPLESTART:51.903;
#SAMPLELENGTH:12.700;
#SELECTABLE:YES;
#BPMS:0.000=149.020;
#STOPS:;
#BGCHANGES:0.000=Parade video.avi=1.000=1=0=1,
99999=-nosongbg-=1.000=0=0=0 // don't automatically add -songbackground-
;
// cache tags:
#FIRSTBEAT:1.500;
#LASTBEAT:211.500;
#SONGFILENAME:songs/Otaku's Dream 3rd Anime Mix/[naruttebayo] Parade - Naruto 12th ED/Parade.sm;
#HASMUSIC:1;
#HASBANNER:1;
#MUSICLENGTH:89.812;
// end cache tags

//---------------dance-single - Blank----------------
#NOTES:
     dance-single:
     Blank:
     Hard:
     9:
     0.797,0.910,1.000,0.657,0.111,351.000,91.000,59.000,0.000,10.000:



0000
0000
0000
1000
0100
1000
0100
0120
,
1000
0100
0001
0130
0000
1000
0000
0010
,
0100
0110
1000
0010
0011
0100
0010
1000
,
1100
0010
0001
0011
0000
0011
0000
0001
,
0010
0001
0011
0010
0100
1100
0100
0010
,
0011
0000
0100
0000
0110
0000
0110
0000
0000
0000
0110
0000
1000
0000
1000
0100
,
0010
0011
0010
0100
1000
0100
0001
0010
,
0110
0000
0100
0000
1100
0000
0100
0000
0000
0000
1000
0000
0000
0000
1000
0010
,
0100
0010
0100
0010
1000
0010
0100
0000
,
0011
0000
0000
0000
1100
0000
0000
0000
0001
0010
1100
0000
0000
0000
0000
0000
,
0000
1010
0012
0000
0000
0000
0000
0000
,
1000
0100
2003
3020
1030
0100
2020
3030
,
0000
0000
0000
1000
0100
0001
0102
0003
,
1100
0000
0000
0000
0120
0000
0000
0000
1000
0100
0031
0000
0000
0000
0000
0000
,
0000
1100
2010
0000
0000
3001
2100
0000
,
3001
0021
0031
0000
0000
0010
0100
0010
,
0001
0010
0100
0010
1000
1100
0012
0000
,
1003
0100
0010
0000
0120
0000
1000
0000
0001
0000
0130
0000
1200
0000
0000
0000
,
1000
0010
1300
0000
0011
0000
1100
0000
0000
0000
1002
0000
0000
0000
1000
0000
,
0103
0000
0120
0000
1030
0100
0011
0000
0000
0000
0000
0000
0000
0000
0000
0000
,
0000
0000
1000
0000
0100
1000
1100
0000
0011
0000
0100
0000
0110
0000
0000
0000
,
1001
0000
0000
0000
0110
0000
0000
0000
0010
0100
0120
0000
0000
0000
0000
0000
,
0000
1030
1100
0000
0000
1000
0022
0000
,
1000
0133
2000
0000
0100
3010
0110
0000
,
1000
0000
0010
0100
0001
0000
0012
0000
0000
0000
2003
0000
3000
0000
0110
0000
,
0000
0000
1100
0010
0001
0010
0110
1000
,
0001
1002
0000
0000
0000
1003
1200
0000
,
1000
1300
1000
0100
0100
0100
0110
0010
,
0010
0010
0000
0110
0000
0000
0000
1000
,
0000
0000
1000
1000
1000
1001
0001
0001
,
0001
1001
0000
1000
0100
0010
0012
1000
,
1100
0013
0110
0000
1000
0100
0001
0100
,
1000
0000
0100
1000
0100
0001
1100
0000
0000
0000
2100
0000
3100
0000
0021
0000
,
0031
0210
0310
1200
1300
2001
3001
0120
,
0130
0000
0000
2100
3001
0120
1030
0012
,
0103
0210
0301
1020
0130
2001
3010
0110
,
0000
1200
0010
1000
0010
1000
0010
1000
,
0001
1000
0010
1000
0001
1000
0010
1300
,
0000
1100
1000
0020
1000
0001
1030
0200
,
1000
0000
0010
0000
1000
0000
0001
0000
0300
0000
0200
0000
0310
0001
0010
0000
,
1010
1000
0002
1000
0020
1003
0031
0200
,
0010
0000
1000
0000
0001
0000
0000
0000
1010
0000
0001
0000
0000
0000
0310
0001
,
0011
1000
0020
1000
2000
0130
0001
0010
,
0100
0001
0020
3200
0001
1030
0010
1000
,
0301
0010
0110
0000
1001
0000
0020
0000
0100
0000
0001
0000
1030
0000
2100
0000
,
0001
0010
0001
0100
0010
3001
1000
0110
,
0010
1000
0001
0110
0000
1001
0000
1010
,
0000
0000
0001
0000
0000
0000
0100
0010
0100
0010
0100
0000
0110
0000
1000
0001
,
1000
0001
1001
0000
0000
0000
0101
0000
0000
0000
1100
0000
0000
0000
0100
0000
,
1000
0001
0100
0020
1000
0001
1000
0230
,
0300
1010
0020
1000
0032
0100
1003
0020
,
1000
0032
0200
0013
1000
0010
1000
0301
,
1000
0001
0100
0000
0000
0000
2002
0000
0000
0000
0000
0000
3003
0000
0000
0000
;

//---------------dance-single - Blank----------------
#NOTES:
     dance-single:
     Blank:
     Medium:
     6:
     0.377,0.500,0.212,0.145,0.000,205.000,19.000,13.000,0.000,0.000:

0000
0000
0000
1001
0000
0010
1000
0100
,
0010
0010
0110
1001
0000
1001
0000
0010
,
1000
0010
0001
0100
0001
1000
0100
0100
,
1000
0100
1000
0100
0000
1100
0000
0001
,
1000
0001
1000
0001
1000
0100
0100
0010
,
0010
0001
1000
1000
0000
0001
0000
0010
,
0010
0010
0010
1000
0010
1000
0010
1000
,
0001
1000
0001
1001
0000
1001
0000
0010
,
0100
0010
0100
0010
1000
0100
0001
0000
,
0010
0000
0100
0000
1000
1000
0000
0000
,
0000
1000
0001
0000
0000
0000
0000
0000
,
1000
0001
0010
1000
0010
0001
1000
0000
,
0000
0000
0000
1000
0000
1000
0100
0000
,
0001
0000
0010
0000
1000
0100
0000
0000
,
0000
0100
0010
0000
0000
0010
0010
0000
,
1000
0100
1000
0000
0000
0000
0000
0000
,
0000
0000
0000
1000
0001
0001
1000
0000
,
0000
0000
0000
0001
1000
1000
0001
0000
,
0000
0000
0000
0100
0001
0001
0000
1000
,
0000
0010
1000
0010
0000
0000
0000
0000
,
0000
0000
1000
0100
0010
0100
1000
0000
,
1000
0000
0010
0000
0010
0010
0000
0000
,
0000
0110
0220
0000
0330
0000
0000
0000
,
0000
0000
0000
0000
0000
0000
0000
1000
,
0001
1000
0000
1001
0000
0000
0000
2002
,
3003
0000
1000
0100
0010
0001
1000
0100
,
0010
0002
0000
0000
0000
0000
0000
0000
,
0000
0000
0000
0003
,
0000
0000
0000
0000
0000
0000
0000
0220
,
0330
0000
0100
0010
0100
0010
1000
0001
,
1000
2002
0000
0000
0000
3003
0000
0000
,
0000
0000
0000
0000
,
0000
0000
0000
1000
0000
0100
0000
0010
,
0000
0001
0000
0001
0000
0010
0000
0100
,
0000
0000
0000
0001
0000
0100
0000
1000
,
0000
1000
0000
0100
0000
0010
0000
0001
,
0000
0000
0000
1000
0000
1000
0000
0001
,
0000
0001
0000
0010
0000
0100
0000
1000
,
0000
0100
0000
1000
0000
0001
0000
0100
,
0000
0001
0000
0001
0000
0001
0000
0001
,
0000
0000
0000
0100
0000
0001
0000
0001
,
0000
0100
0000
1000
0000
0010
0000
0001
,
0000
0000
0000
1000
0000
0100
0000
0010
,
0000
0001
0000
0100
0000
0010
0000
0100
,
0000
0000
0000
1000
0000
0001
0000
1001
,
0000
0110
0000
0110
0000
1001
0000
1000
,
0000
1000
0000
0001
0000
0001
0000
1000
,
0000
2002
0000
0000
0000
0000
0000
3003
,
0000
0000
0000
1000
0000
1000
0000
0100
,
0000
0100
0000
0001
0000
0001
0000
0010
,
0000
0010
0000
0100
0000
0100
0000
1000
,
0000
1000
0000
0001
0000
0001
0000
0010
,
0000
0220
0000
0000
0000
0000
0000
0330
;
